Scott Pilgrim Vs The World Torrent Download

Pilgrim
  1. Scott Pilgrim Vs The World Torrent Download
  2. Scott Pilgrim Vs The World Torrent Downloads

Scott Pilgrim vs the World 2010 TAKUUN  completo film scaricare torrent Share Ratio 33 Seeds 49 Peers Scaricare Scott Pilgrim deve sconfiggere sette cani malvagi della sua nuova ragazza per conquistare il suo cuore. Manager: Scrittori di Edgar Wright: Michael Bacall (sceneggiatore), Edgar Wright (sceneggiatura) Scott Pilgrim suona in una band di successo.

General
Unique ID : 43477774437372553851251425264873802544 (0x20B583C7FE9C32807113526B15688B30)
Complete name : /Volumes/sammy/Scott Pilgrim Vs The World (2010) 1080p Bluray 10-bit x265 HEVC AC3 5.1 [XannyFamily].mkv
Format : Matroska
Format version : Version 4
File size : 1.78 GiB
Duration : 1 h 52 min
Overall bit rate : 2 273 kb/s
Movie name : Scott Pilgrim Vs The World (2010) 1080p [XannyFamily]
Encoded date : UTC 2020-12-02 19:09:32
Writing application : HandBrake 1.3.3 2020061500
Writing library : Lavf58.29.100
ErrorDetectionType : Per level 1
Video
ID : 1
Format : HEVC
Format/Info : High Efficiency Video Coding
Format profile : Main [email protected]@Main
Codec ID : V_MPEGH/ISO/HEVC
Duration : 1 h 52 min
Bit rate : 1 780 kb/s
Width : 1 920 pixels
Height : 1 040 pixels
Display aspect ratio : 1.85:1
Frame rate mode : Constant
Frame rate : 23.976 (24000/1001) FPS
Color space : YUV
Chroma subsampling : 4:2:0
Bit depth : 10 bits
Bits/(Pixel*Frame) : 0.037
Stream size : 1.40 GiB (78%)
Writing library : x265 3.2.1+1-b5c86a64bbbe:[Linux][GCC 9.3.0][64 bit] 10bit
Encoding settings : cpuid=1111039 / frame-threads=3 / wpp / no-pmode / no-pme / no-psnr / no-ssim / log-level=2 / input-csp=1 / input-res=1920x1040 / interlace=0 / total-frames=0 / level-idc=0 / high-tier=1 / uhd-bd=0 / ref=3 / no-allow-non-conformance / no-repeat-headers / annexb / no-aud / no-hrd / info / hash=0 / no-temporal-layers / open-gop / min-keyint=24 / keyint=240 / gop-lookahead=0 / bframes=4 / b-adapt=2 / b-pyramid / bframe-bias=0 / rc-lookahead=20 / lookahead-slices=6 / scenecut=40 / radl=0 / no-splice / no-intra-refresh / ctu=64 / min-cu-size=8 / no-rect / no-amp / max-tu-size=32 / tu-inter-depth=1 / tu-intra-depth=1 / limit-tu=0 / rdoq-level=0 / dynamic-rd=0.00 / no-ssim-rd / signhide / no-tskip / nr-intra=0 / nr-inter=0 / no-constrained-intra / strong-intra-smoothing / max-merge=3 / limit-refs=1 / no-limit-modes / me=1 / subme=2 / merange=57 / temporal-mvp / no-hme / weightp / no-weightb / no-analyze-src-pics / deblock=0:0 / sao / no-sao-non-deblock / rd=3 / selective-sao=4 / early-skip / rskip / no-fast-intra / no-tskip-fast / no-cu-lossless / b-intra / no-splitrd-skip / rdpenalty=0 / psy-rd=2.00 / psy-rdoq=0.00 / no-rd-refine / no-lossless / cbqpoffs=0 / crqpoffs=0 / rc=crf / crf=23.0 / qcomp=0.60 / qpstep=4 / stats-write=0 / stats-read=0 / ipratio=1.40 / pbratio=1.30 / aq-mode=2 / aq-strength=1.00 / cutree / zone-count=0 / no-strict-cbr / qg-size=32 / no-rc-grain / qpmax=69 / qpmin=0 / no-const-vbv / sar=1 / overscan=0 / videoformat=5 / range=0 / colorprim=1 / transfer=1 / colormatrix=1 / chromaloc=0 / display-window=0 / cll=0,0 / min-luma=0 / max-luma=1023 / log2-max-poc-lsb=8 / vui-timing-info / vui-hrd-info / slices=1 / no-opt-qp-pps / no-opt-ref-list-length-pps / no-multi-pass-opt-rps / scenecut-bias=0.05 / no-opt-cu-delta-qp / no-aq-motion / no-hdr / no-hdr-opt / no-dhdr10-opt / no-idr-recovery-sei / analysis-reuse-level=5 / scale-factor=0 / refine-intra=0 / refine-inter=0 / refine-mv=1 / refine-ctu-distortion=0 / no-limit-sao / ctu-info=0 / no-lowpass-dct / refine-analysis-type=0 / copy-pic=1 / max-ausize-factor=1.0 / no-dynamic-refine / no-single-sei / no-hevc-aq / no-svt / no-field / qp-adaptation-range=1.00
Default : Yes
Forced : No
Color range : Limited
Color primaries : BT.709
Transfer characteristics : BT.709
Matrix coefficients : BT.709
Audio
ID : 2
Format : AC-3
Format/Info : Audio Coding 3
Commercial name : Dolby Digital
Codec ID : A_AC3
Duration : 1 h 52 min
Bit rate mode : Constant
Bit rate : 448 kb/s
Channel(s) : 6 channels
Channel layout : L R C LFE Ls Rs
Sampling rate : 48.0 kHz
Frame rate : 31.250 FPS (1536 SPF)
Compression mode : Lossy
Delay relative to video : -5 ms
Stream size : 360 MiB (20%)
Title : Dolby Digital Surround 5.1 (AC3)
Language : English
Service kind : Complete Main
Default : Yes
Forced : No
Text
ID : 3
Format : ASS
Codec ID : S_TEXT/ASS
Codec ID/Info : Advanced Sub Station Alpha
Duration : 1 h 48 min
Compression mode : Lossless
Title : Full English Subtitles
Language : English
Default : No
Forced : No
Torrent

Scott Pilgrim Vs The World Torrent Download

Sites

Scott Pilgrim Vs The World Torrent Downloads

Scott Pilgrim Vs. The World: The Game (XBLA Demo). TORRENT download. Download 5 Files download 5 Original. Scott Pilgrim vs. The World (2010) 1080p Bluray 10-bit x265 HEVC AC3 5.1 XannyFamily torrent download - ExtraTorrent.ag.